Skip to main content

Donna the Buffalo Live at Spirit Of The Suwannee Music Park on 2012-10-20




Be The Change
If You Only Could
It's Love Time
Silverlined
Forty Days And Forty Nights
Hot Tamale Baby
I Love My Tribe
Blue Sky
Tomorrow Still Knows
I Can Fly
One Day At A Time
Conscious Evolution
No Place Like The Right Time >
Family Picture


Collection DonnatheBuffalo
Band/Artist Donna the Buffalo
Venue Spirit Of The Suwannee Music Park
Location Live Oak, FL

Source SBD/AUD Matrix; Schoeps cmc6/mk4v (ORTF) + SBD > Tascam DR-680 (24/44.1)
Lineage SD> .wav @24/44.1> WaveLab 6.10(SBD+AUD sources edited separately and mixed)> r8brain PRO> .wav @16/44.1> CD Wave Editor> TLH> flac16
Taped by Chris Cafiero
Transferred by Edited, mixed and mastered by Alex Ford


Notes

- All editing and mastering in 24/44.1
- SBE Free
- Meta tagging with Tag&Rename

This is shn id #122923

Shntool Output:


length expanded size cdr WAVE problems fmt ratio filename
4:39.19 49260332 B --- -- ----- wav 1.0000 donna2012-10-20-mtx-t01.wav
6:58.12 73763468 B --- -- ----- wav 1.0000 donna2012-10-20-mtx-t02.wav
4:41.53 49693100 B --- -- ----- wav 1.0000 donna2012-10-20-mtx-t03.wav
3:36.67 38260028 B --- -- ----- wav 1.0000 donna2012-10-20-mtx-t04.wav
8:08.50 86200844 B --- -- ----- wav 1.0000 donna2012-10-20-mtx-t05.wav
8:03.08 85220060 B --- -- ----- wav 1.0000 donna2012-10-20-mtx-t06.wav
2:57.30 31293404 B --- -- ----- wav 1.0000 donna2012-10-20-mtx-t07.wav
5:59.60 63468764 B --- -- ----- wav 1.0000 donna2012-10-20-mtx-t08.wav
5:47.68 61370780 B --- -- ----- wav 1.0000 donna2012-10-20-mtx-t09.wav
3:17.38 34840220 B --- -- ----- wav 1.0000 donna2012-10-20-mtx-t10.wav
4:27.69 47261132 B --- -- ----- wav 1.0000 donna2012-10-20-mtx-t11.wav
9:16.26 98139596 B --- -- ----- wav 1.0000 donna2012-10-20-mtx-t12.wav
4:34.12 48361868 B --- -- ----- wav 1.0000 donna2012-10-20-mtx-t13.wav
7:23.25 78204044 B --- -- ----- wav 1.0000 donna2012-10-20-mtx-t14.wav
79:52.12 845337640 B 1.0000 (14 files)

Reviews

Reviewer: capnhook - - November 23, 2012
Subject: It's niiiice to get a SBD patch. Magfest does not give them out freely anymore.
Thanks. Happy Thanksgiving.

Matrix recordings are the ones I like to make, too. Heck, I have even made a few right there at Suwanee, and Magfest, too.

I was disappointed that soundboard feeds aren't being given out freely anymore at Magfest's big stages.

I won't be back until the soundboard policy reverses course.

Respectfully,

capnhook
PEOPLE ALSO FOUND
Donna the Buffalo
by Donna the Buffalo
407
0
0
Source: (FOB) DPA 4022'S(DIN) > Lunatec V3 > JB3(@16/44.1)
Donna the Buffalo
by Donna the Buffalo
339
4
1
( 1 reviews )
Source: SBD/AUD Matrix; Schoeps cmc6/mk4v (ORTF) + SBD > Tascam DR-680 (24/44.1)
Little Feat
by Little Feat
227
1
0
Source: Schoeps CCM4V'S(din)>Lunatec V2>Benchmark AD2K> Sound Devices 722 (24/48)
The Mighty Manatees
by The Mighty Manatees
113
1
0
Source: SBD/Sennheiser ME 64/Schoeps cmc6/mk4v > Tascam DR-680 (@24/44.1)
Little Feat
by Little Feat
157
1
0
Source: Gefell MV690/M70 (Cards)>Busman Mod HD-P2, 24/48
Jackie Greene
by Jackie Greene
482
1
1
( 1 reviews )
Source: (FOB) DPA 4022 > Lunatec V3(@16/44.1) > Nomad JB3
Little Feat
by Little Feat
144
1
0
Source: Sennheiser ME 64 > Tascam DR-680 @24 bit/44.1 kHz
Paul Barrere and Fred Tackett Acoustic Duo
by Paul Barrere and Fred Tackett Acoustic Duo
164
1
0
Source: Sennheiser ME64(ORTF) > Sound Devices 722 (24/44.1)
The Mighty Manatees
by The Mighty Manatees
43
0
0
Source: SBD
Paul Barrere and Fred Tackett Acoustic Duo
by Paul Barrere and Fred Tackett Acoustic Duo
222
0
0
Source: Sennheiser ME64(ORTF) > Sound Devices 722 (16/44.1)